风潮唱片 -《心灵音乐馆-心灵音乐诗系列-素颜鸽》修正了下载地址,抱歉![APE]

风潮唱片 -《心灵音乐馆-心灵音乐诗系列-素颜鸽》修正了下载地址,抱歉![APE]
  • 片  名  风潮唱片 -《心灵音乐馆-心灵音乐诗系列-素颜鸽》修正了下载地址,抱歉![APE]
  • 简  介  发行时间: 1996年08月27日
  • 类  别  音乐
  • 小  类  其它音乐


  • 详细介绍专辑中文名: 心灵音乐馆-心灵音乐诗系列-素颜鸽艺术家: 风潮唱片资源格式: APE版本: 修正了下载地址,抱歉!发行时间: 1996年08月27日地区: 台湾简介:
    专辑介绍:
    ◎製作人 : Music Gate工作室
    ◎製作群 : 作曲:Music Gate、木易、吴金黛等人|演出:范宗沛|
    ◎发行日期 : 1996/08/27
    ◎产品存货状态 : 供货正常
    ◎主题网站 : 风潮套装专区-心灵音乐诗
    ◎套装商品 : 心灵音乐诗 套装(8CD)
    维持一贯的淡雅风格,音乐表现愈趋醇熟, 收录最上选的曲目,献给每一颗清净的心灵。
    转载自爱乐族,感谢上弦月的精心制作和慷慨分享。仅供试听之用,喜欢请购买正版。
  • 风潮唱片 -《心灵音乐馆-心灵音乐诗系列-素颜鸽》修正了下载地址,抱歉![APE]_large

精选评论

顶上
顶上

同意
谢谢醉~ 总是发风潮的,嘻嘻~ 谢咯~
喜欢风潮唱片的音乐,谢谢楼主共享
me too ,thanks
merci beaucoup
喜欢风潮的音乐 !!!!!!!!!!
为毛没有源啊~~~有没有哪位好心人续一下种嘛~~~
1.有点困惑,著名的Music Gate既然翻版班得瑞的作品……
第一首Screens of Spring没听错的话原曲是班得瑞的《童年》所属专辑《日光海岸》

2.感谢楼主的分享,非常谢谢。

3.cue似乎没源,下载了很久才下载完成。

打开笔记本写一个吧:复制下面保存为cue文件。

PERFORMER "Various"
TITLE "Wings of Dream"
FILE "CDImage.ape" WAVE
TRACK 01 AUDIO
TITLE "Screens of Spring"
INDEX 01 00:00:00
TRACK 02 AUDIO
TITLE "Wings of Dream"
INDEX 01 08:29:22
TRACK 03 AUDIO
TITLE "Transparent Pages"
INDEX 01 12:45:55
TRACK 04 AUDIO
TITLE "Soft Whispers"
INDEX 01 21:27:07
TRACK 05 AUDIO
TITLE "A Rose Pedal"
INDEX 01 30:00:10
TRACK 06 AUDIO
TITLE "A Return Swallow"
INDEX 01 37:31:52
谢楼主和9楼朋友!
怎么下到97.7%就不动了 >.<
楼主,还是没有源哦,愁人 ........
楼主:心灵音乐馆-心灵音乐诗系列-还是没有源哦,谢谢供源........