群星 -《Crdzy Stoem》(SOS 风暴)190k[MP3]

群星 -《Crdzy Stoem》(SOS 风暴)190k[MP3]
  • 片  名  群星 -《Crdzy Stoem》(SOS 风暴)190k[MP3]
  • 简  介  音乐风格: 流行发行时间: 2007年地区: 大陆语言: 普通话
  • 类  别  音乐
  • 小  类  欧美音乐


  • 详细介绍专辑英文名: Crdzy Stoem专辑中文名: SOS 风暴歌手: 群星音乐风格: 流行资源格式: MP3版本: 190k发行时间: 2007年地区: 大陆语言: 普通话简介: 专辑介绍:
    汽车发烧友必备,汽车音响品牌大联盟权威认证专用试机碟
    HI-FI品质保证,完美现场感,沸腾全球的舞曲
    音乐狂潮,不可遏止的热浪,激情与速度齐飞扬
  • 群星 -《Crdzy Stoem》(SOS 风暴)190k[MP3]_large

精选评论

Exact Audio Copy V0.99 prebeta 4 from 23. January 2008

EAC 抓取日志文件从7. 六月 2009, 22:56

使用驱动器 :CLMZ STEZWLEZ8 Adapter: 5 ID: 0

读取模式 : 保护
使用精确流 : 是
废除音频缓冲 : 是
使用 C2 指针 : 否

读取偏移校正 : 0
读取 Lead-In 和 Lead-Out : 否
用静音填充抓取中丢失偏移的采样 : 是
去除首尾静音块 : 否
在 CRC 计算中使用了空样本 : 否
已用接口 : Win NT 及 2000 本地 Win32 接口

所用输出格式 : Monkey's Audio 无损编码器
已选比特率 : Fast Lossless Compression
质量 : 高
添加 ID3 标签 : 是
命令行压缩器 : C:Program FilesMonkey's AudioMAC.exe


被抓轨 CD 的 TOC

音轨 | 开始 | 长度 | 起始扇区 | 结尾扇区
--------------------------------------------------
1 | 0:00.00 | 3:31.62 | 0 | 15886
2 | 3:31.62 | 3:31.00 | 15887 | 31711
3 | 7:02.62 | 5:27.66 | 31712 | 56302
4 | 12:30.53 | 3:04.33 | 56303 | 70135
5 | 15:35.11 | 3:16.09 | 70136 | 84844
6 | 18:51.20 | 4:52.72 | 84845 | 106816
7 | 23:44.17 | 3:20.08 | 106817 | 121824
8 | 27:04.25 | 3:53.60 | 121825 | 139359
9 | 30:58.10 | 3:27.54 | 139360 | 154938
10 | 34:25.64 | 3:07.72 | 154939 | 169035
11 | 37:33.61 | 3:40.00 | 169036 | 185535
12 | 41:13.61 | 3:45.68 | 185536 | 202478
13 | 44:59.54 | 3:11.39 | 202479 | 216842


范围状态及错误

已选择范围

文件名 G:【APE】SOS风暴DSD.wav

峰值电平 100.0 %
范围质量 100.0 %
复制 CRC 7421C137
复制成功

没有错误发生

状态报告结尾
REM DATE 2007
PERFORMER "群星"
TITLE "SOS风暴"
FILE "SOS风暴DSD.ape" WAVE
TRACK 01 AUDIO
TITLE "细语轻喃"
INDEX 01 00:00:00
TRACK 02 AUDIO
TITLE "重温性感"
INDEX 01 03:31:62
TRACK 03 AUDIO
TITLE "啦波巴(女生版)"
INDEX 01 07:02:62
TRACK 04 AUDIO
TITLE "向着音乐一路狂奔"
INDEX 01 12:30:53
TRACK 05 AUDIO
TITLE "发浪"
INDEX 01 15:35:11
TRACK 06 AUDIO
TITLE "随着地球摇摆"
INDEX 01 18:51:20
TRACK 07 AUDIO
TITLE "性感女神"
INDEX 01 23:44:17
TRACK 08 AUDIO
TITLE "迷你秀——扎哈雅"
INDEX 01 27:04:25
TRACK 09 AUDIO
TITLE "马克运动热潮"
INDEX 01 30:58:10
TRACK 10 AUDIO
TITLE "一起来"
INDEX 01 34:25:64
TRACK 11 AUDIO
TITLE "荒野诺言"
INDEX 01 37:33:61
TRACK 12 AUDIO
TITLE "伊哥王子"
INDEX 01 41:13:61
TRACK 13 AUDIO
TITLE "魔鬼的咒语"
INDEX 01 44:59:54
不知道MP3的完挡截图指的是什么,放上抓轨截图和CUE文件信息不知道符合要求不!
支持下楼主!!

可惜我的音响对HIFI和普通无法区分!
楼主。有APE版本的不?
云里雾里了,“资源格式: MP3”“FILE "SOS风暴DSD.ape" WAVE”???