宋飞 -《国色》xrcd[APE]

宋飞 -《国色》xrcd[APE]
  • 片  名  宋飞 -《国色》xrcd[APE]
  • 简  介  发行时间: 2004年
  • 类  别  音乐
  • 小  类  古典音乐


  • 详细介绍专辑中文名: 国色艺术家: 宋飞资源格式: APE版本: xrcd发行时间: 2004年地区: 大陆语言: 普通话简介:

    专辑介绍:
    专辑名称:《国色》
    歌手姓名:宋飞等
    发行公司:瑞鸣唱片
    发行时间:2004年
    编号:RMXRCD-004
    录音:李小沛
    作曲:史志有
    语言种类:国语
    《国色》是一张通过八首乐曲,描绘千古以来最极致八位美人的神貌,如此恢弘题材前人从未有过尝试的唱片。本专辑精选收录八首乐曲完全出于原创,作曲家史志有先生,完美结合民乐和西洋乐的表现特色,细细聆听,八位国色眉目有异各具风华,非常好!
    根据唱片公司的话:“所以此张专辑从策划到创作到制作完成,一直诚惶诚恐,千万不敢唐突美人,亦不敢马虎听者。”而本来这张唱片在半年前已经可以出版,但由于制作者为追求至完美的效果,在录制完一半曲目的时候全部推翻重新修改,如此用心地制作一张唱片,现在的确能的,足见制作者对传统文化的投入与真挚诚意。
    专辑继续瑞鸣音乐一贯严谨品格,特别邀请数十位国内外最出名的“国手乐师”演奏,特邀国内最出色顶级录音师之一的李小沛先生进行录音,在亚洲顶级的中央电视台480平方米录音棚运用现已稀少的全模疑录音技术,然后再在日本进行XRCD2的后期制作,并在日本压片。
    中外联手精良打造这张《国色》,华丽、精致、耀眼、美丽...再多的赞美之词也难说出我们对这张唱片的感觉,真真像极了韦庄那句“满耳笙歌满眼花”,绝色之趣,尽入怀中。《国色》这张唱片的确值得乐迷收藏,绝对推荐!

  • 宋飞 -《国色》xrcd[APE]_large

精选评论

很有特色的音乐,我很喜欢。
PERFORMER "国色"
TITLE "宋飞"
FILE "宋飞.-.[国色].专辑.(APE).ape" WAVE
TRACK 01 AUDIO
TITLE "西施浣纱"
PERFORMER "沉鱼"
INDEX 01 00:00:00
TRACK 02 AUDIO
TITLE "昭君出塞"
PERFORMER "落雁"
INDEX 00 09:27:42
INDEX 01 09:31:12
TRACK 03 AUDIO
TITLE "貂禅弄影"
PERFORMER "闭月"
INDEX 00 15:21:55
INDEX 01 15:25:50
TRACK 04 AUDIO
TITLE "玉环新浴"
PERFORMER "羞花"
INDEX 00 23:50:24
INDEX 01 23:54:50
TRACK 05 AUDIO
TITLE "飞燕憐舞"
PERFORMER "留仙"
INDEX 00 30:58:15
INDEX 01 31:01:62
TRACK 06 AUDIO
TITLE "甄妃挽髻"
PERFORMER "惊鸿"
INDEX 00 35:48:69
INDEX 01 35:52:12
TRACK 07 AUDIO
TITLE "宝珠乘鸾"
PERFORMER "遏云"
INDEX 00 41:45:55
INDEX 01 41:49:37
TRACK 08 AUDIO
TITLE "香妃归汉"
PERFORMER "化碟"
INDEX 00 47:46:20
INDEX 01 47:49:62
谢谢楼主!向楼主致敬!
好东西 下了 绝好的民乐
CUE对不上号哟!张冠李戴咯
谢谢楼主,这是我最爱的一张CD了,我会长期分源。
就凭“而本来这张唱片在半年前已经可以出版,但由于制作者为追求至完美的效果,在录制完一半曲目的时候全部推翻重新修改,如此用心地制作一张唱片,现在的确能的,足见制作者对传统文化的投入与真挚诚意。”
也要下!否则对不起创作者和楼主。