王磊 -《一切从爱情开始》首版[APE]

王磊 -《一切从爱情开始》首版[APE]
  • 片  名  王磊 -《一切从爱情开始》首版[APE]
  • 简  介  Douban1432133:8.2(247 votes)音乐风格: 民谣发行时间: 1995年地区: 大陆语言: 普通话
  • 类  别  音乐
  • 小  类  华语音乐


  • 详细介绍专辑中文名: 一切从爱情开始歌手: 王磊音乐风格: 民谣资源格式: APE版本: 首版发行时间: 1995年地区: 大陆语言: 普通话简介: 专辑介绍:
    生于四川,然后选择了广州为发展基地的王磊,他不仅是一位摇滚创作歌手那么简单。曾背着吉他于广东、福建、海南、北京等地方流浪的他,在其音乐里也呈现出一般摇滚诗人的情操,散发出强烈的独立音乐自主精神。
    《一切从爱情开始》是王磊重投民歌根源与Acoustic化的唱片,记录了一首首对爱情作出解构与反讽的情歌,流露出一份斯人憔悴的黯然低调情怀。
  • 王磊 -《一切从爱情开始》首版[APE]_large

精选评论

不错的摇滚歌手,好像快被人淡忘了
跟我名字一样,我也叫王磊
不错的专辑,好久没有他的消息了。怀旧吧
感谢分享
很喜欢这张专辑,不过大多数人都不太喜欢他的这张
出版时间 写错了,应该是1998年,可以翻看那年的《音乐天堂》杂志(那是当年最棒的流行音乐有声读物,已经超越了原来的《音像世界》),对这张评价很高。
PERFORMER "王磊"
TITLE "一切从爱情开始"
REM DATE 1995
FILE "王磊.-.[一切从爱情开始].专辑.(APE).ape" WAVE
TRACK 01 AUDIO
TITLE "我爱你 喜欢你"
PERFORMER "王磊"
REM DATE 1995
INDEX 01 00:00:00
TRACK 02 AUDIO
TITLE "天国烂漫曲"
PERFORMER "王磊"
REM DATE 1995
INDEX 01 02:20:71
TRACK 03 AUDIO
TITLE "我来看你了"
PERFORMER "王磊"
REM DATE 1995
INDEX 01 07:29:49
TRACK 04 AUDIO
TITLE "我有话对你说"
PERFORMER "王磊"
REM DATE 1995
INDEX 01 11:42:64
TRACK 05 AUDIO
TITLE "你害怕吗?"
PERFORMER "王磊"
REM DATE 1995
INDEX 01 16:50:13
TRACK 06 AUDIO
TITLE "想象中"
PERFORMER "王磊"
REM DATE 1995
INDEX 01 21:27:42
TRACK 07 AUDIO
TITLE "让爱自由……谁"
PERFORMER "王磊"
REM DATE 1995
INDEX 01 26:59:18
TRACK 08 AUDIO
TITLE "啦 咿啊 啦 啦"
PERFORMER "王磊"
REM DATE 1995
INDEX 01 32:37:26
TRACK 09 AUDIO
TITLE "我们就应该这样"
PERFORMER "王磊"
REM DATE 1995
INDEX 01 38:36:66
TRACK 10 AUDIO
TITLE "进化"
PERFORMER "王磊"
REM DATE 1995
INDEX 01 42:18:14
TRACK 11 AUDIO
TITLE "我爱你 喜欢你 Ⅱ"
PERFORMER "王磊"
REM DATE 1995
INDEX 01 43:46:58
无比经典

无敌至爱

后一张广州的春梦或称春天来了也极其经典
看样子不错啊