《第13个小时》(Necromentia)DVDRip.2009

《第13个小时》(Necromentia)DVDRip.2009
  • 片  名  《第13个小时》(Necromentia)DVDRip.2009
  • 简  介  Douban3213405:4.1(15 votes)无
  • 类  别  电影
  • 小  类  欧美


  • 详细介绍

    ◎译  名 第13个小时
    ◎片  名 Necromentia
    ◎年  代 2009
    ◎国  家 美国
    ◎类  别 恐怖
    ◎语  言 英语
    ◎字  幕 N/A
    ◎IMDB评分 3.3/10 (33 votes)
    ◎IMDB链接 http://www.imdb.com/title/tt1286765
    ◎文件格式 XviD + AC3
    ◎视频尺寸 720 x 400
    ◎文件大小 1CD 94 x 15MB
    ◎片  长 85 mins
    ◎导  演 皮尔瑞·雷金纳德·迪奥 Pearry Reginald Teo
    ◎主  演 Layton Matthews ... Morbius
          Chad Grimes ... Travis
          Santiago Craig ... Hagen
          Zelieann Rivera ... Elizabeth
          Cole Braxton ... Little Boy
          扎奇·库默 Zach Cumer ... Thomas
          Crow Garrett ... Connor
          Judy Ben-Asher ... Girlfriend
          John Eslinger ... Smithson
          Stephanie Joyce ... Red Room Woman
          Mark Maltzer ... Lawyer
          Terry Spector ... Boyfriend

    影片介绍 

    影片讲述了一块神秘的显灵版所引发的故事:哈根是一名希望能使死去的妻子复活的男子;特拉维斯则希望把失踪的哥哥找回来;酒吧招待莫比尔斯则希望寻找那些背叛了他的爱人复仇,他们都希望得到那块显灵版。而显灵版则保存在一名神秘的被称为斯基尼先生的男子的手中。

    代码General
    Complete name : D:\Necromentia DVDRip Xvid AC3-Freebee269\Necromentia DVDRip Xvid AC3-Freebee269.avi
    Format : AVI
    Format/Info : Audio Video Interleave
    Format profile : OpenDML
    File size : 1.40 GiB
    Duration : 1h 25mn
    Overall bit rate : 2 352 Kbps
    Writing application : AVI-Mux GUI 1.17.8.3, Feb 16 201019:42:50

    Video
    ID : 0
    Format : MPEG-4 Visual
    Format profile : Advanced Simple@L5
    Format settings, BVOP : Yes
    Format settings, QPel : No
    Format settings, GMC : No warppoints
    Format settings, Matrix : Default (MPEG)
    Codec ID : XVID
    Codec ID/Hint : XviD
    Duration : 1h 25mn
    Bit rate : 1 898 Kbps
    Width : 720 pixels
    Height : 400 pixels
    Display aspect ratio : 16:9
    Frame rate : 29.970 fps
    Color space : YUV
    Chroma subsampling : 4:2:0
    Bit depth : 8 bits
    Scan type : Progressive
    Compression mode : Lossy
    Bits/(Pixel*Frame) : 0.220
    Stream size : 1.13 GiB (81%)
    Writing library : XviD 1.2.1 (UTC 2008-12-04)

    Audio
    ID : 1
    Format : AC-3
    Format/Info : Audio Coding 3
    Mode extension : CM (complete main)
    Codec ID : 2000
    Duration : 1h 25mn
    Bit rate mode : Constant
    Bit rate : 448 Kbps
    Channel(s) : 6 channels
    Channel positions : Front: L C R, Side: L R, LFE
    Sampling rate : 48.0 KHz
    Bit depth : 16 bits
    Compression mode : Lossy
    Stream size : 273 MiB (19%)
    Alignment : Aligned on interleaves
    Interleave, duration : 64 ms (1.
  • 《第13个小时》(Necromentia)DVDRip.2009_large